Reprodução de arquivos .MP4 e .MKV via FTP ou DLNA ???

Programas, manuais e formas de uso
souzaef
Mensagens: 13
Registrado em: 23 Ago 2016 14:36

Reprodução de arquivos .MP4 e .MKV via FTP ou DLNA ???

#1

Mensagem por souzaef » 23 Ago 2016 14:42

Amigos alguém poderia confirmar se o A5 reproduz filmes com extensão .MP4 e .MKV pela rede, no serviço DLNA ou FTP? procurei essa informação na net e não achei nada do tipo...Obrigado por qquer ajuda!!!

Avatar do usuário
Costa_ZL
Mensagens: 836
Registrado em: 16 Dez 2014 11:53

Re: Reprodução de arquivos .MP4 e .MKV via FTP ou DLNA ???

#2

Mensagem por Costa_ZL » 23 Ago 2016 16:06

Já lhe disse ele faz as mesma coisas que o A1. ;)

souzaef
Mensagens: 13
Registrado em: 23 Ago 2016 14:36

Re: Reprodução de arquivos .MP4 e .MKV via FTP ou DLNA ???

#3

Mensagem por souzaef » 07 Set 2016 15:40

Costa_ZL escreveu:Já lhe disse ele faz as mesma coisas que o A1. ;)
então amigo, como informei o aparelho ñ reproduz filmes em .MP4 por DLNA. experimente vc tentar reproduzir para entender o q ocorre. simplesmemte ele reconhece a extensão MP4 como musica, mantendo o menu de controle de avanço na frente do video, ñ permitindo assistir o filme. no outro forum vc mencionou sobre 2 apps de reprodução que eu ñ encontrei no aparelho. poderia por favor me descrever como instalar eles?

Avatar do usuário
Costa_ZL
Mensagens: 836
Registrado em: 16 Dez 2014 11:53

Re: Reprodução de arquivos .MP4 e .MKV via FTP ou DLNA ???

#4

Mensagem por Costa_ZL » 07 Set 2016 19:37

souzaef escreveu:
Costa_ZL escreveu:Já lhe disse ele faz as mesma coisas que o A1. ;)
então amigo, como informei o aparelho ñ reproduz filmes em .MP4 por DLNA. experimente vc tentar reproduzir para entender o q ocorre. simplesmemte ele reconhece a extensão MP4 como musica, mantendo o menu de controle de avanço na frente do video, ñ permitindo assistir o filme. no outro forum vc mencionou sobre 2 apps de reprodução que eu ñ encontrei no aparelho. poderia por favor me descrever como instalar eles?
Eu lhe mencionei para vc informar qual o codec de video e audio usando nos teus .MP4 para eu comprar com os meus que funcionam intendeu.


Os meus .MP4 que funcionam perfeitos tem os codecs abaixo veja:
a diferencia de um para outro nos prints abaixo que o 2ª é em HD 720 a 1ª ´é Full HD 1080.

Imagem

peguei um outro mp4 aqui para testar este abaixo só mude o audio:


Imagem

souzaef
Mensagens: 13
Registrado em: 23 Ago 2016 14:36

Re: Reprodução de arquivos .MP4 e .MKV via FTP ou DLNA ???

#5

Mensagem por souzaef » 07 Set 2016 20:35

amigo por gentileza, me explica como vc faz para ter acesso aos sus filmes pela rede usando o DLNA?

Simples, ponho meus arquivos no PC no caso uso win 7 na pasta videos (pois é uma pasta padrão de compartilhamento do win 7), depois vou no deco DLNA - DMR - vai abrir os PC compartilhado em minha rede, vou em pastas videos todos os videos encontro o vídeo que quero e clik ok simples assim.

souzaef
Mensagens: 13
Registrado em: 23 Ago 2016 14:36

Re: Reprodução de arquivos .MP4 e .MKV via FTP ou DLNA ???

#6

Mensagem por souzaef » 07 Set 2016 22:33

exatamente dessa maneira que faço em ksa, mas uso um roteador tplink w8970 com saida usb, onde tenho um hd com meus filmes q baixo por torrent. acesso os filmes, mas tdo q é filme em .mp4 o aparelho roda como musica. amanhã vou tirar uma foto de como fica tela e posto aqui. obrigado pela ajuda.

Avatar do usuário
Costa_ZL
Mensagens: 836
Registrado em: 16 Dez 2014 11:53

Re: Reprodução de arquivos .MP4 e .MKV via FTP ou DLNA ???

#7

Mensagem por Costa_ZL » 08 Set 2016 13:47

souzaef escreveu:exatamente dessa maneira que faço em ksa, mas uso um roteador tplink w8970 com saida usb, onde tenho um hd com meus filmes q baixo por torrent. acesso os filmes, mas tdo q é filme em .mp4 o aparelho roda como musica. amanhã vou tirar uma foto de como fica tela e posto aqui. obrigado pela ajuda.
amigo,
teste como disse poe o arquivo .mp4 no PC por fv.

souzaef
Mensagens: 13
Registrado em: 23 Ago 2016 14:36

Re: Reprodução de arquivos .MP4 e .MKV via FTP ou DLNA ???

#8

Mensagem por souzaef » 10 Set 2016 21:45

Amigo @Costa_ZL, segue algumas fotos de como ficam os filmes em .MP4 na hra de reproduzir em casa. Como mencionei anteriormente, os filmes são reconhecidos com musica, e por conta disso, ele mantem a tela de controle sobre a imagem do filme. Perceba pelas fotos q tenho inúmeros filmes e clipes em extensão .MP4, sendo inumeros baixados por torrent e os clips baixado do youtube. Tbém baixei o player GomPlayer q vc indicou, e tirei as informações de 2 filmes q tenho, mas todos mostram o mesmo problema. Por favor peço q compare como comparei com os prints q vc me mandou. Ainda acho q o problema ñ estão nos arquivos de filmes, e sim em algum bug no fw do receptor. Esse mesmo bug ocorre no receptor Ultra 3 q tenho, mas no Azbox (elite ou premium) q tenho rodam numa boa.

Obrigado pelo apoio!

General
Complete name : \\10.1.1.1\volume(sda1)\FILMES\VARIOS\Ajuste de Contas.mp4
Format : MPEG-4
Format profile : Base Media
Codec ID : isom
File size : 1.64 GiB
Duration : 1h 53mn
Overall bit rate mode : Variable
Overall bit rate : 2 076 Kbps
Encoded date : UTC 2014-04-25 21:09:32
Tagged date : UTC 2014-04-25 21:09:32
Writing application : MkvToMp4 [www.mkvtomp4.ru] version 0.224 (x64)

Video
ID : 1
Format : AVC
Format/Info : Advanced Video Codec
Format profile : High@L4.1
Format settings, CABAC : Yes
Format settings, ReFrames : 4 frames
Codec ID : avc1
Codec ID/Info : Advanced Video Coding
Duration : 1h 53mn
Bit rate : 1 980 Kbps
Maximum bit rate : 10.5 Mbps
Width : 1 920 pixels
Height : 1 080 pixels
Display aspect ratio : 16:9
Frame rate mode : Constant
Frame rate : 23.976 fps
Color space : YUV
Chroma subsampling : 4:2:0
Bit depth : 8 bits
Scan type : Progressive
Bits/(Pixel*Frame) : 0.040
Stream size : 1.57 GiB (95%)
Writing library : x264 core 132 r2 76a5c3a
Encoding settings : cabac=1 / ref=4 / deblock=1:-1:-1 / analyse=0x3:0x133 / me=umh / subme=9 / psy=1 / psy_rd=1.00:0.15 / mixed_ref=1 / me_range=24 / chroma_me=1 / trellis=2 / 8x8dct=1 / cqm=0 / deadzone=21,11 / fast_pskip=0 / chroma_qp_offset=-3 / threads=36 / lookahead_threads=3 / sliced_threads=0 / nr=0 / decimate=1 / interlaced=0 / bluray_compat=0 / constrained_intra=0 / bframes=3 / b_pyramid=2 / b_adapt=2 / b_bias=0 / direct=3 / weightb=1 / open_gop=0 / weightp=2 / keyint=250 / keyint_min=23 / scenecut=40 / intra_refresh=0 / rc_lookahead=60 / rc=2pass / mbtree=1 / bitrate=1980 / ratetol=1.0 / qcomp=0.60 / qpmin=0 / qpmax=69 / qpstep=4 / cplxblur=20.0 / qblur=0.5 / vbv_maxrate=31250 / vbv_bufsize=31250 / nal_hrd=none / ip_ratio=1.40 / aq=1:1.00
Language : English
Encoded date : UTC 2014-04-25 21:09:32
Tagged date : UTC 2014-04-25 21:12:48
Color primaries : BT.709
Matrix coefficients : BT.709

Audio
ID : 2
Format : AAC
Format/Info : Advanced Audio Codec
Format profile : HE-AAC / LC
Codec ID : 40
Duration : 1h 53mn
Bit rate mode : Variable
Bit rate : 92.9 Kbps
Maximum bit rate : 110 Kbps
Channel(s) : 2 channels
Channel positions : Front: L R
Sampling rate : 48.0 KHz / 24.0 KHz
Compression mode : Lossy
Stream size : 75.3 MiB (4%)
Language : Portuguese
Encoded date : UTC 2014-04-25 21:12:31
Tagged date : UTC 2014-04-25 21:12:48

---------------------------------------------------------------------------------

General
Complete name : \\10.1.1.1\volume(sda1)\FILMES\VARIOS\Now.You.See.Me.2.2016.1080p.BluRay.H264.AAC-RARBG.mp4
Format : MPEG-4
Format profile : Base Media
Codec ID : isom
File size : 2.47 GiB
Duration : 2h 9mn
Overall bit rate : 2 729 Kbps
Movie name : Now.You.See.Me.2.2016.1080p.BluRay.H264.AAC-RARBG
Encoded date : UTC 2016-08-19 17:37:53
Tagged date : UTC 2016-08-19 17:37:53
Writing application : Lavf56.40.101
Comment : Now.You.See.Me.2.2016.1080p.BluRay.H264.AAC-RARBG

Video
ID : 1
Format : AVC
Format/Info : Advanced Video Codec
Format profile : High@L4.1
Format settings, CABAC : Yes
Format settings, ReFrames : 4 frames
Codec ID : avc1
Codec ID/Info : Advanced Video Coding
Duration : 2h 9mn
Bit rate : 2 500 Kbps
Width : 1 920 pixels
Height : 1 080 pixels
Display aspect ratio : 16:9
Frame rate mode : Constant
Frame rate : 24.000 fps
Color space : YUV
Chroma subsampling : 4:2:0
Bit depth : 8 bits
Scan type : Progressive
Bits/(Pixel*Frame) : 0.050
Stream size : 2.26 GiB (92%)
Writing library : x264 core 148 r2597M e86f3a1
Encoding settings : cabac=1 / ref=4 / deblock=1:-1:-1 / analyse=0x3:0x113 / me=umh / subme=9 / psy=1 / psy_rd=1.00:0.15 / mixed_ref=1 / me_range=24 / chroma_me=1 / trellis=2 / 8x8dct=1 / cqm=0 / deadzone=21,11 / fast_pskip=1 / chroma_qp_offset=-3 / threads=32 / lookahead_threads=4 / sliced_threads=0 / nr=0 / decimate=1 / interlaced=0 / bluray_compat=0 / constrained_intra=0 / bframes=3 / b_pyramid=2 / b_adapt=2 / b_bias=0 / direct=3 / weightb=1 / open_gop=0 / weightp=2 / keyint=250 / keyint_min=25 / scenecut=40 / intra_refresh=0 / rc_lookahead=50 / rc=2pass / mbtree=1 / bitrate=2500 / ratetol=1.0 / qcomp=0.60 / qpmin=0 / qpmax=69 / qpstep=4 / cplxblur=20.0 / qblur=0.5 / vbv_maxrate=31250 / vbv_bufsize=31250 / nal_hrd=none / filler=0 / ip_ratio=1.40 / aq=3:1.00
Encoded date : UTC 2016-08-19 17:37:53
Tagged date : UTC 2016-08-19 17:37:53

Audio
ID : 2
Format : AAC
Format/Info : Advanced Audio Codec
Format profile : LC
Codec ID : 40
Duration : 2h 9mn
Duration_LastFrame : 32ms
Bit rate mode : Constant
Bit rate : 224 Kbps
Channel(s) : 2 channels
Channel(s)_Original : 6 channels
Channel positions : Front: L C R, Side: L R, LFE
Sampling rate : 48.0 KHz
Compression mode : Lossy
Stream size : 207 MiB (8%)
Language : English
Encoded date : UTC 2016-08-19 17:37:53
Tagged date : UTC 2016-08-19 17:37:53

----------------------------------------------------------------------------------------------------------


Imagem

Imagem

Imagem

Imagem

Imagem

Imagem

Imagem

Imagem
ocnr

Avatar do usuário
Costa_ZL
Mensagens: 836
Registrado em: 16 Dez 2014 11:53

Re: Reprodução de arquivos .MP4 e .MKV via FTP ou DLNA ???

#9

Mensagem por Costa_ZL » 11 Set 2016 13:09

me diz como vc faz, pois estou que é diferente da forma que executo via DLNA por fv.

souzaef
Mensagens: 13
Registrado em: 23 Ago 2016 14:36

Re: Reprodução de arquivos .MP4 e .MKV via FTP ou DLNA ???

#10

Mensagem por souzaef » 11 Set 2016 14:51

vou em dlna, dmp, ele lista quem tem o serviço dlna divulgado, no meu caso w8970 divulga a pasta workgroup, onde estão as outras pastas onde se encontra meus filmes.

Responder

Voltar para “Programas, tutoriais e suporte”